usbfoot

» » Arch Nemesis - Of Mind And Fantasy

Arch Nemesis - Of Mind And Fantasy download flac

music album
Arch Nemesis - Of Mind And Fantasy download flac

Performer: Arch Nemesis
Title: Of Mind And Fantasy
Released: 2004
Country: Norway
Style: Thrash, Prog Rock, Heavy Metal
Category: Rock
Size FLAC: 1732 mb
Size MP3: 1479 mb
Size WMA: 1939 mb
Other formats: MMF DTS VOC MP1 WMA AIFF AC3


Complete your Arch Nemesis collection. Northern Lights Anno 2004. Of Mind And Fantasy ‎(CD, Album).

Band Name Arch Nemesis. Album Name Of Mind and Fantasy. Music StylePower Metal. Members owning this album2. 4. Judgement Day. 5. Little Child. 6. Of Mind and Fantasy. 7. Master of Darkness. 8. A tale of the Ocean. 9. Other productions from Arch Nemesis.

Arch Nemesis discography (main). lt; Shadows in the Mirror (2002). Arch Nemesis discography (all).

Of Mind and Fantasy (2004) by Arch Nemesis. Genres: Power Metal Members: Pukk, Jaz, Chain, Nesmoth, Motvind, Worm. Album (Studio full-length).

Of Mind and Fantasy (4:04). Overview (current section). Before the Shadows Came. Eagle Fly Free (Helloween Cover).

Слушать песню ARCH NEMESIS – Of Mind And Fantasy онлайн или скачать mp3 в хорошем качестве 320 kbps на телефон (андроид, айфон) вы можете на сайте YoSound. ARCH NEMESIS – Of Mind And Fantasy. Слушают сейчас: sander une sander unuit femur robot Scott Bradlee & Postmodern Jukebox Blurred lines Scott Bradlee & Postmodern Jukebox Burred queen flick of the wrist single version Scott Bradlee & Postmodern Jukebox get lucky biniak sweet Scott Bradlee xxxtencion – Spulae Mulae Scott Bradlee's Postmodern jukebox Pig & Dan Doing It For Yourself Eric Prydz swink pretender Tom novy ubungani kled falco tensnake falco kruder falco carl craig.

PERFORMER "Arch Nemesis" INDEX 01 06:36:21 TRACK 03 AUDIO TITLE "Hunger And The Darkness" PERFORMER "Arch Nemesis" INDEX 00 13:17:08 INDEX 01 13:18:36 TRACK 04 AUDIO TITLE "Judgement Day" PERFORMER "Arch Nemesis" INDEX 00 20:41:67 INDEX 01 20:42:19 TRACK 05 AUDIO TITLE "Little Child" PERFORMER "Arch Nemesis" INDEX 01 26:35:36 TRACK. The second full length album from Arch Nemesis, Of Mind and Fantasy, is a haunting, hard-charging juggernaut of a disk that displays the dynamic sounds of Medieval Metal with a flair for the unexpected. Beginning with the opening track, Before the Shadows Came, we are set upon the epic tales of folklore that one would expect from these Old World Europeans.

Artist: Arch Nemesis. Album: Of Mind and Fantasy, 2009. Has been played on. Russia 1. Radio Caprice - Dark Metal.

Arch Nemesis Northern Lights. Alchemy Fantasy Full Album H. p3. D D Lore ITA Forgotten Realms Pt 23 Orcus. Arch Nemesis A Tale Of The Ocean.

Tracklist

1 Before The Shadows Came 6:37
2 I Dream (Therefore I Am?) 6:40
3 Hunger And The Darkness 7:24
4 Judgement Day 5:54
5 Little Child 4:07
6 Of Mind And Fantasy 4:04
7 Master Of Darkness 5:20
8 A Tale Of The Ocean 8:05
9 Northern Lights Anno 2004 4:32

Companies, etc.

  • Distributed By – Voices Music & Entertainment
  • Pressed By – www.dcm.dk
  • Pressed By – DCM

Notes

"Northern Lights Anno 2004" is an updated version of the song "Northern Light" off the debut album, "Shadows In The Mirror".

Album Duration: 52:43

Barcode and Other Identifiers

  • Barcode: 7 035538 884924
  • Matrix / Runout: www.dcm.dk 0410ME41935FF030 #01 DCM

Other versions

Category Artist Title (Format) Label Category Country Year
000 Arch Nemesis Of Mind And Fantasy ‎(CD, Album) Edgerunner Music 000 Norway 2004


Related at Arch Nemesis - Of Mind And Fantasy FLAC albums

Northern State - All City download flac

Northern State - All City album download...

Released: 2004
Country: US
Northern Lights  - One Too Many download flac

Northern Lights - One Too Many album download...

Released: 1991
Country: US
Style: Breakbeat, Techno
The Northern Lights - No Time download flac

The Northern Lights - No Time album download...

Released: 1966
Country: US
Style: Folk
2nd Face - Nemesis download flac

2nd Face - Nemesis album download...

Released: 2017
Country: Germany
Style: Industrial, EBM
Polikarp - Northern Lights EP download flac

Polikarp - Northern Lights EP album download...

Released: 2009
Country: Argentina
Style: Deep House, Minimal, Experimental
Nigel Hayes - Northern Lights EP download flac

Nigel Hayes - Northern Lights EP album download...

Released: 2012
Country: UK
Style: House
Uruk-Hai - Northern Lights download flac

Uruk-Hai - Northern Lights album download...

Released: 2011
Country: Estonia
Style: Black Metal, Ambient
Baumstam - Dreams Of Yesterday download flac

Baumstam - Dreams Of Yesterday album download...

Released: 2004
Country: Germany
Style: Krautrock